PROVEGAS.RU: SONY VEGAS FORUM - Показать сообщение отдельно - Vegas + Youtube + Samsung S9+
Показать сообщение отдельно
Старый 27.05.2019, 15:49   #5
gromila9 Меню пользователя
Стажер
 
Регистрация: 26.05.2019
Сообщений: 5
Рейтинг: 10
gromila9 с Первым уровенем доверия
По умолчанию

Смысл в том, что снято с Bit rate : 75.0 Mb/s
ВК, юутб режут до 4-8, вот и все падение качества.
Вопрос можно ли перекодировать видео с высоким битрейтом в более низкий без потери качества.

Цитата:
Сообщение от jurisviii Посмотреть сообщение
Тогда я не вижу других параметров, которых можно было улучшить без замены камеры.
Камера Samsung Galaxy S9+ признана лучшей в мире на март прошлого года, куда менять? Пол интернета снимает на мобильные с нормальным качеством, причем здесь камера.

Настройки съемки и кодирование. При съемке был завален битрейт на максимум, ютуб его режет в 10 раз.

Вот что имеем после перекодирования ВК

Video: MPEG4 Video (H264) 1920x1080 24fps 4515kbps [V: h264 high L4.0, yuv420p, 1920x1080, 4515 kb/s]
Audio: AAC 44100Hz stereo 192kbps [A: SoundHandler (aac lc, 44100 Hz, stereo, 192 kb/s)]

General
Complete name : D:\Temp\Ч.1_1080p.mp4
Format : MPEG-4
Format profile : Base Media
Codec ID : isom (isom/iso2/avc1/mp41)
File size : 244 MiB
Duration : 7 min 13 s
Overall bit rate mode : Variable
Overall bit rate : 4 713 kb/s
Writing application : Lavf58.20.100

Video
ID : 1
Format : AVC
Format/Info : Advanced Video Codec
Format profile : High@L4
Format settings : CABAC / 4 Ref Frames
Format settings, CABAC : Yes
Format settings, Reference fra : 4 frames
Codec ID : avc1
Codec ID/Info : Advanced Video Coding
Duration : 7 min 13 s
Bit rate mode : Variable
Bit rate : 4 500 kb/s
Width : 1 920 pixels
Height : 1 080 pixels
Display aspect ratio : 16:9
Frame rate mode : Constant
Frame rate : 24.000 FPS
Color space : YUV
Chroma subsampling : 4:2:0
Bit depth : 8 bits
Scan type : Progressive
Bits/(Pixel*Frame) : 0.090
Stream size : 233 MiB (96%)
Codec configuration box : avcC

Audio
ID : 2
Format : AAC LC
Format/Info : Advanced Audio Codec Low Complexity
Codec ID : mp4a-40-2
Duration : 7 min 13 s
Duration_LastFrame : -19 ms
Bit rate mode : Constant
Bit rate : 192 kb/s
Channel(s) : 2 channels
Channel layout : L R
Sampling rate : 44.1 kHz
Frame rate : 43.066 FPS (1024 SPF)
Compression mode : Lossy
Stream size : 9.92 MiB (4%)
Default : Yes
Alternate group : 1


----
Overall bit rate : 4 713 kb/s

Последний раз редактировалось gromila9; 27.05.2019 в 16:06. Причина: Automerged Doublepost
gromila9 вне форума   Ответить с цитированием