PROVEGAS.RU: SONY VEGAS FORUM - Показать сообщение отдельно - ошибка при открытии кодека
Показать сообщение отдельно
Старый 18.10.2017, 22:35   #1
ДмитрийПопов Меню пользователя
Научный сотрудник
 
Регистрация: 30.07.2015
Сообщений: 91
Рейтинг: 6597
ДмитрийПопов с Максимальным уровнем доверияДмитрийПопов с Максимальным уровнем доверияДмитрийПопов с Максимальным уровнем доверияДмитрийПопов с Максимальным уровнем доверияДмитрийПопов с Максимальным уровнем доверияДмитрийПопов с Максимальным уровнем доверияДмитрийПопов с Максимальным уровнем доверияДмитрийПопов с Максимальным уровнем доверияДмитрийПопов с Максимальным уровнем доверияДмитрийПопов с Максимальным уровнем доверияДмитрийПопов с Максимальным уровнем доверия
По умолчанию ошибка при открытии кодека

здравствуйте, не открывается файл PotPlayerMini: avi (.avi)
вегас пишет «ошибка при открытии кодека»

характеристики файла:
Общее
Полное имя : D:\видеозаписи\костя\запись.avi
Формат : AVI
Формат/Информация : Audio Video Interleave
Размер файла : 204 Мбайт
Продолжительность : 14 м. 27 с.
Общий поток : 1974 Кбит/сек

Видео
Идентификатор : 0
Формат : AVC
Формат/Информация : Advanced Video Codec
Профиль формата : High@L3.1
Настройки формата : CABAC / 1 Ref Frames
Параметр CABAC формата : Да
Параметр RefFrames формата : 1 кадр
Параметр GOP формата : M=1, N=46
Идентификатор кодека : H264
Продолжительность : 14 м. 27 с.
Битрейт : 1969 Кбит/сек
Ширина : 1280 пикселей
Высота : 720 пикселей
Соотношение сторон : 16:9
Частота кадров : 23,000 кадра/сек
Цветовое пространство : YUV
Субдискретизация насыщенности : 4:2:0
Битовая глубина : 8 бит
Тип развёртки : Прогрессивная
Бит/(Пиксели*Кадры) : 0.093
Размер потока : 204 Мбайт (100%)

Аудио
Идентификатор : 1
Формат : ADPCM
Профиль формата : A-Law
Идентификатор кодека : 6
Идентификатор кодека/Подсказка : CCITT
Продолжительность : 14 м. 27 с.
Вид битрейта : Постоянный
Битрейт : 64,0 Кбит/сек
Каналы : 1 канал
Частота : 8000 Гц
Битовая глубина : 8 бит
Размер потока : 6,62 Мбайт (3%)


Проблему я сюда залил
https://rutube.ru/video/bce791cf5618...ee3c7841caec9/
ДмитрийПопов вне форума   Ответить с цитированием