Наверно проблема с экспортом видео - PROVEGAS.RU: SONY VEGAS FORUM
Нажмите для перехода на сайт ProVegas.ru  

Вернуться   PROVEGAS.RU: SONY VEGAS FORUM > ПРОГРАММНОЕ ОБЕСПЕЧЕНИЕ > Sony Vegas

Ответ
 
Опции темы Поиск в этой теме Опции просмотра
Старый 25.06.2017, 22:52   #1
Jopcorn Меню пользователя
Стажер
 
Регистрация: 25.06.2017
Сообщений: 3
Рейтинг: 10
Jopcorn с Первым уровенем доверия
По умолчанию Наверно проблема с экспортом видео

доброго времени суток , не особо понимаю как назвать тему. суть проблемы такая , записал видео шедоуплеем (запись видео от видеокарты) . видео на 15-20 минут ,проблем с ним нет.
экспортирую в сони вегас и видео всего 4-7 минут . как мне это исправить? гуглил свою проблему описывая своими словами , гугл не помог. помогите пожалуйста умными словечками , либо решить такую проблему )
Jopcorn вне форума   Ответить с цитированием
Старый 26.06.2017, 01:44   #2
Проходчик Меню пользователя
Старший научный сотрудник
 
Аватар для Проходчик
 
Регистрация: 30.05.2009
Сообщений: 1,607
Рейтинг: 416300
Проходчик с Максимальным уровнем доверияПроходчик с Максимальным уровнем доверияПроходчик с Максимальным уровнем доверияПроходчик с Максимальным уровнем доверияПроходчик с Максимальным уровнем доверияПроходчик с Максимальным уровнем доверияПроходчик с Максимальным уровнем доверияПроходчик с Максимальным уровнем доверияПроходчик с Максимальным уровнем доверияПроходчик с Максимальным уровнем доверияПроходчик с Максимальным уровнем доверия
По умолчанию

Что бы хоть кто то ещё понял тебя без умных словечек - почитай здесь, без этого -"моя твоя непонимай"
__________________
Меня постоянно преследуют умные мысли - но я всегда быстрее...
Проходчик вне форума   Ответить с цитированием
Старый 26.06.2017, 09:38   #3
Jopcorn Меню пользователя
Стажер
 
Регистрация: 25.06.2017
Сообщений: 3
Рейтинг: 10
Jopcorn с Первым уровенем доверия
По умолчанию

Цитата:
Сообщение от Проходчик Посмотреть сообщение
Что бы хоть кто то ещё понял тебя без умных словечек - почитай здесь, без этого -"моя твоя непонимай"

Напишу тут ,а то вот что мне выдает

1 Intel (R) Core (TM) i3-3240 CPU
@3.40Ghz , 8 гб озу ,
MSI GeForce GTX 1050 OC 2гб
win7 sp1 x64 , vegas pro 13.0 x64
2
Общее
Полное имя : D:\Hlam\SV\ArcheAge\123.mp4
Формат : MPEG-4
Профиль формата : Base Media / Version 2
Идентификатор кодека : mp42 (mp41/isom)
Размер файла : 3,81 Гбайт
Продолжительность : 12 м. 11 с.
Общий поток : 44,7 Мбит/сек
Дата записи : 2017

Видео
Идентификатор : 1
Формат : AVC
Формат/Информация : Advanced Video Codec
Профиль формата : High@L4.2
Параметр CABAC формата : Да
Параметр ReFrames формата : 1 кадр
Параметр GOP формата : M=1, N=30
Идентификатор кодека : avc1
Идентификатор кодека/Информация : Advanced Video Coding
Продолжительность : 12 м. 11 с.
Продолжительность оригинала : 12 м. 11 с.
Битрейт : 44,5 Мбит/сек
Ширина : 1440 пикселей
Высота : 900 пикселей
Соотношение сторон : 16:10
Режим частоты кадров : Переменный
Частота кадров : 59,507 кадров/сек
Минимальная частота кадров : 0,599 кадр/сек
Максимальная частота кадров : 63,830 кадра/сек
Частота кадров в оригинале : 60,000 кадров/сек
Стандарт вещания : PAL
Цветовое пространство : YUV
Субдискретизация насыщенности : 4:2:0
Битовая глубина : 8 бит
Тип развёртки : Прогрессивная
Бит/(Пиксели*Кадры) : 0.577
Размер потока : 3,79 Гбайт (100%)
Размер потока оригинала : 3,79 Гбайт (100%)
Цветовой диапазон : Limited
Основные цвета : BT.601 NTSC
Характеристики трансфера : BT.470 System M
Коэффициенты матрицы : BT.601
mdhd_Duration : 301572

Аудио
Идентификатор : 2
Формат : AAC
Формат/Информация : Advanced Audio Codec
Профиль формата : LC
Идентификатор кодека : 40
Продолжительность : 12 м. 11 с.
Продолжительность оригинала : 12 м. 11 с.
Вид битрейта : Постоянный
Битрейт : 192 Кбит/сек
Каналы : 2 канала
Расположение каналов : Front: L R
Частота : 48,0 КГц
Частота кадров : 46,875 кадров/сек (1024 spf)
Метод сжатия : С потерями
Размер потока : 17,0 Мбайт (0%)
Размер потока оригинала : 17,0 Мбайт (0%)
mdhd_Duration : 301591


3-4 Есть записанные видео , больше 10 минут , при открытии их в вегасе , они становятся 4-7 минут.
Пример скрин 1 скрин 2

Последний раз редактировалось jurisviii; 26.06.2017 в 13:09. Причина: Нарушение пункта 2.3 правил форума
Jopcorn вне форума   Ответить с цитированием
Старый 26.06.2017, 18:18   #4
vsorkin Меню пользователя
Старший научный сотрудник
 
Аватар для vsorkin
 
Регистрация: 21.01.2009
Сообщений: 312
Рейтинг: 324392
vsorkin с Максимальным уровнем доверияvsorkin с Максимальным уровнем доверияvsorkin с Максимальным уровнем доверияvsorkin с Максимальным уровнем доверияvsorkin с Максимальным уровнем доверияvsorkin с Максимальным уровнем доверияvsorkin с Максимальным уровнем доверияvsorkin с Максимальным уровнем доверияvsorkin с Максимальным уровнем доверияvsorkin с Максимальным уровнем доверияvsorkin с Максимальным уровнем доверия
По умолчанию

Цитата:
Режим частоты кадров : Переменный
Минимальная частота кадров : 0,599 кадр/сек
Максимальная частота кадров : 63,830 кадра/сек
Скорее всего такое не нравиться Вегасу, что не мудрено. Конвертируйте сторонним софтом в монтажный формат с постянной частотой кадров. Тогда все откроется в Вегасе нормально.
vsorkin вне форума   Ответить с цитированием
Старый 26.06.2017, 19:01   #5
Jopcorn Меню пользователя
Стажер
 
Регистрация: 25.06.2017
Сообщений: 3
Рейтинг: 10
Jopcorn с Первым уровенем доверия
По умолчанию

спасибо , но мне уже помогли советом ,я просто поставил портабл версию и все заработало , либо надо было перекачать клиент вегаса и переустановить. ибо с моим была какая то проблема.
решено.
Jopcorn вне форума   Ответить с цитированием
Ответ

Опции темы Поиск в этой теме
Поиск в этой теме:

Расширенный поиск
Опции просмотра

Ваши права в разделе
Вы не можете создавать новые темы
Вы не можете отвечать в темах
Вы не можете прикреплять вложения
Вы не можете редактировать свои сообщения

BB коды Вкл.
Смайлы Вкл.
[IMG] код Вкл.
HTML код Выкл.

Быстрый переход


Sony Vegas: ProVegas.ru
© 2008-2014 При полном или частичном использовании материалов ссылка на ProVegas.ru обязательна.


Часовой пояс GMT +4, время: 10:16.



Яндекс.Метрика