Вегас плохо принимает видео - PROVEGAS.RU: SONY VEGAS FORUM
Нажмите для перехода на сайт ProVegas.ru  

Вернуться   PROVEGAS.RU: SONY VEGAS FORUM > ПРОГРАММНОЕ ОБЕСПЕЧЕНИЕ > Sony Vegas

Ответ
 
Опции темы Поиск в этой теме Опции просмотра
Старый 11.08.2017, 22:53   #1
Kotofei_ka Меню пользователя
Стажер
 
Регистрация: 11.08.2017
Сообщений: 4
Рейтинг: 10
Kotofei_ka с Первым уровенем доверия
SOS Вегас плохо принимает видео

Вообщем Записывал я видео. После записи закидываю в вегас, а на видео рябь просто дикая. При Рендере получился зеленый фон со звуком. Вчера скачал фильм Его вегас не принял. Переконвертировал в avi Закинул в вегас та же рябь. и звук был только 20 секунд (примерно)
Вот ссылка на скрин http://imgur.com/a/Sl4EX
Kotofei_ka вне форума   Ответить с цитированием
Старый 11.08.2017, 23:18   #2
jurisviii Меню пользователя
Самый научный сотрудник
 
Аватар для jurisviii
 
Регистрация: 09.05.2008
Сообщений: 9,542
Рейтинг: 662780
jurisviii с Максимальным уровнем доверияjurisviii с Максимальным уровнем доверияjurisviii с Максимальным уровнем доверияjurisviii с Максимальным уровнем доверияjurisviii с Максимальным уровнем доверияjurisviii с Максимальным уровнем доверияjurisviii с Максимальным уровнем доверияjurisviii с Максимальным уровнем доверияjurisviii с Максимальным уровнем доверияjurisviii с Максимальным уровнем доверияjurisviii с Максимальным уровнем доверия
По умолчанию

http://provegas.ru/forum/showpost.ph...91&postcount=3
http://provegas.ru/forum/showthread.php?t=2636
jurisviii вне форума   Ответить с цитированием
Старый 12.08.2017, 01:11   #3
Kotofei_ka Меню пользователя
Стажер
 
Регистрация: 11.08.2017
Сообщений: 4
Рейтинг: 10
Kotofei_ka с Первым уровенем доверия
По умолчанию

MediaInfo Не захотела открывать тот фильм. По этому заснял видео, которое так же рябит, звук правда тут нормальный. Вот что выдало:
General
Complete name : F:\Видео\bandicam 2017-08-12 01-06-08-045.avi
Format : AVI
Format/Info : Audio Video Interleave
File size : 1.00 MiB
Duration : 4 s 33 ms
Overall bit rate : 2 082 kb/s
Writing application : BandiAviMuxer 1.0

Video
ID : 0
Format : AVC
Format/Info : Advanced Video Codec
Format profile : Main@L3.2
Format settings, CABAC : Yes
Format settings, RefFrames : 1 frame
Codec ID : H264
Duration : 4 s 33 ms
Bit rate : 513 kb/s
Width : 1 280 pixels
Height : 720 pixels
Display aspect ratio : 16:9
Frame rate : 60.000 FPS
Color space : YUV
Chroma subsampling : 4:2:0
Bit depth : 8 bits
Scan type : Progressive
Bits/(Pixel*Frame) : 0.009
Stream size : 252 KiB (25%)

Audio
ID : 1
Format : PCM
Format settings, Endianness : Little
Format settings, Sign : Signed
Codec ID : 1
Duration : 4 s 0 ms
Bit rate mode : Constant
Bit rate : 1 536 kb/s
Channel(s) : 2 channels
Sampling rate : 48.0 kHz
Bit depth : 16 bits
Stream size : 750 KiB (73%)
Alignment : Aligned on interleaves
Interleave, duration : 101 ms (6.05 video frames)

Последний раз редактировалось jurisviii; 12.08.2017 в 13:31. Причина: Нарушение пунта 2.3 правил форума
Kotofei_ka вне форума   Ответить с цитированием
Старый 12.08.2017, 13:38   #4
jurisviii Меню пользователя
Самый научный сотрудник
 
Аватар для jurisviii
 
Регистрация: 09.05.2008
Сообщений: 9,542
Рейтинг: 662780
jurisviii с Максимальным уровнем доверияjurisviii с Максимальным уровнем доверияjurisviii с Максимальным уровнем доверияjurisviii с Максимальным уровнем доверияjurisviii с Максимальным уровнем доверияjurisviii с Максимальным уровнем доверияjurisviii с Максимальным уровнем доверияjurisviii с Максимальным уровнем доверияjurisviii с Максимальным уровнем доверияjurisviii с Максимальным уровнем доверияjurisviii с Максимальным уровнем доверия
По умолчанию

Цитата:
MediaInfo Не захотела открывать тот фильм.
Похоже, файл дефектный.
А доисторический
Цитата:
Format : AVI
не имеет полноценную поддержку современных кодеков типа AVC, HEVC итп.
Проверенный способ записи игр.
jurisviii вне форума   Ответить с цитированием
Старый 12.08.2017, 16:02   #5
Kotofei_ka Меню пользователя
Стажер
 
Регистрация: 11.08.2017
Сообщений: 4
Рейтинг: 10
Kotofei_ka с Первым уровенем доверия
По умолчанию

Есть смысл ставить Vegas более старой версии?

Format : Matroska
Format version : Version 4 / Version 2
File size : 5.76 GiB
Duration : 1 h 27 min
Overall bit rate : 9 463 kb/s

Последний раз редактировалось Kotofei_ka; 12.08.2017 в 16:16. Причина: Automerged Doublepost
Kotofei_ka вне форума   Ответить с цитированием
Старый 13.08.2017, 10:51   #6
jurisviii Меню пользователя
Самый научный сотрудник
 
Аватар для jurisviii
 
Регистрация: 09.05.2008
Сообщений: 9,542
Рейтинг: 662780
jurisviii с Максимальным уровнем доверияjurisviii с Максимальным уровнем доверияjurisviii с Максимальным уровнем доверияjurisviii с Максимальным уровнем доверияjurisviii с Максимальным уровнем доверияjurisviii с Максимальным уровнем доверияjurisviii с Максимальным уровнем доверияjurisviii с Максимальным уровнем доверияjurisviii с Максимальным уровнем доверияjurisviii с Максимальным уровнем доверияjurisviii с Максимальным уровнем доверия
По умолчанию

Не одна из версий не одной из профессиональных видео монтажных програм никогда не работала с матрешкой. Подробнее.
Разумно для профессиональной работы использовать MXF вместе MKV.
jurisviii вне форума   Ответить с цитированием
Старый 15.08.2017, 13:53   #7
Kotofei_ka Меню пользователя
Стажер
 
Регистрация: 11.08.2017
Сообщений: 4
Рейтинг: 10
Kotofei_ka с Первым уровенем доверия
По умолчанию

Переконвертировал еще раз. Все нормально. только - качаство прчем жестоко
Kotofei_ka вне форума   Ответить с цитированием
Ответ

Опции темы Поиск в этой теме
Поиск в этой теме:

Расширенный поиск
Опции просмотра

Ваши права в разделе
Вы не можете создавать новые темы
Вы не можете отвечать в темах
Вы не можете прикреплять вложения
Вы не можете редактировать свои сообщения

BB коды Вкл.
Смайлы Вкл.
[IMG] код Вкл.
HTML код Выкл.

Быстрый переход


Sony Vegas: ProVegas.ru
© 2008-2014 При полном или частичном использовании материалов ссылка на ProVegas.ru обязательна.


Часовой пояс GMT +4, время: 12:13.



Яндекс.Метрика