Видео сохраняется с деинтерлейсом - PROVEGAS.RU: SONY VEGAS FORUM
Нажмите для перехода на сайт ProVegas.ru  

Вернуться   PROVEGAS.RU: SONY VEGAS FORUM > ПРОГРАММНОЕ ОБЕСПЕЧЕНИЕ > Sony Vegas > Обмен опытом

Ответ
 
Опции темы Поиск в этой теме Опции просмотра
Старый 11.05.2015, 13:27   #1
wolverrine Меню пользователя
Стажер
 
Регистрация: 11.05.2015
Сообщений: 2
Рейтинг: 10
wolverrine с Первым уровенем доверия
По умолчанию Видео сохраняется с деинтерлейсом

Как с этим бороться, какие настройки надо ставить?

Вот тех. данные

Общее
Идентификатор : 0 (0x0)
Полное имя : C:\Users\Евгений\Desktop\Новая папка (11)\00808.MTS
CompleteName_Last : C:\Users\Евгений\Desktop\Новая папка (11)\00855.MTS
Формат : BDAV
Формат/Информация : Blu-ray Video
Размер файла : 2,08 Гбайт
Продолжительность : 12 с.
Режим общего битрейта : Переменный
Общий поток : 1438 Мбит/сек
Максимальный общий битрейт : 18,0 Мбит/сек

Видео
Идентификатор : 4113 (0x1011)
Идентификатор меню : 1 (0x1)
Формат : AVC
Формат/Информация : Advanced Video Codec
Профиль формата : High@L4.0
Параметр CABAC формата : Да
Параметр ReFrames формата : 2 кадра
Параметр GOP формата : M=2, N=13
Идентификатор кодека : 27
Продолжительность : 12 с.
Вид битрейта : Переменный
Битрейт : 1381 Мбит/сек
Максимальный битрейт : 16,0 Мбит/сек
Ширина : 1440 пикселей
Высота : 1080 пикселей
Соотношение сторон : 16:9
Частота кадров : 25,000 кадров/сек
Цветовое пространство : YUV
Субдискретизация насыщенности : 4:2:0
Битовая глубина : 8 бит
Тип развёртки : Чересстрочная
Порядок развёртки : Верхнее поле первое
Бит/(Пиксели*Кадры) : 35.521
Размер потока : 1,99 Гбайт (96%)

Аудио
Идентификатор : 4352 (0x1100)
Идентификатор меню : 1 (0x1)
Формат : AC-3
Формат/Информация : Audio Coding 3
Расширение режима : CM (complete main)
Параметр Endianness формата : Big
Идентификатор кодека : 129
Продолжительность : 12 с.
Вид битрейта : Постоянный
Битрейт : 448 Кбит/сек
Каналы : 6 каналов
Расположение каналов : Front: L C R, Side: L R, LFE
Частота : 48,0 КГц
Битовая глубина : 16 бит
Метод сжатия : С потерями
Задержка видео : -80 мс.
Размер потока : 683 Кбайт (0%)

Текст
Идентификатор : 4608 (0x1200)
Идентификатор меню : 1 (0x1)
Формат : PGS
Идентификатор кодека : 144
Продолжительность : 11 с.
Задержка видео : -80 мс.


Вот скрин видео

wolverrine вне форума   Ответить с цитированием
Старый 11.05.2015, 15:42   #2
jurisviii Меню пользователя
Самый научный сотрудник
 
Аватар для jurisviii
 
Регистрация: 09.05.2008
Сообщений: 9,536
Рейтинг: 662780
jurisviii с Максимальным уровнем доверияjurisviii с Максимальным уровнем доверияjurisviii с Максимальным уровнем доверияjurisviii с Максимальным уровнем доверияjurisviii с Максимальным уровнем доверияjurisviii с Максимальным уровнем доверияjurisviii с Максимальным уровнем доверияjurisviii с Максимальным уровнем доверияjurisviii с Максимальным уровнем доверияjurisviii с Максимальным уровнем доверияjurisviii с Максимальным уровнем доверия
По умолчанию

Это не похоже на деинтерлейс, это что-то другое. Как такое получить?
jurisviii вне форума   Ответить с цитированием
Старый 11.05.2015, 21:26   #3
wolverrine Меню пользователя
Стажер
 
Регистрация: 11.05.2015
Сообщений: 2
Рейтинг: 10
wolverrine с Первым уровенем доверия
По умолчанию

Вот видео на выходе.

Общее
Полное имя : C:\Users\Евгений\Desktop\birthday.m2v
Формат : MPEG Video
Версия формата : Version 2
Размер файла : 6,87 Гбайт
Продолжительность : 12 м.
Общий поток : 80,0 Мбит/сек

Видео
Формат : MPEG Video
Версия формата : Version 2
Профиль формата : Main@High
Параметр BVOP формата : Да
Параметр матрицы формата : По умолчанию
Параметр GOP формата : M=3, N=12
Продолжительность : 12 м.
Битрейт : 80,0 Мбит/сек
Ширина : 1920 пикселей
Высота : 1080 пикселей
Соотношение сторон : 16:9
Частота кадров : 23,976 кадра/сек
Цветовое пространство : YUV
Субдискретизация насыщенности : 4:2:0
Битовая глубина : 8 бит
Тип развёртки : Прогрессивная
Метод сжатия : С потерями
Бит/(Пиксели*Кадры) : 1.609
Временной код первого кадра : 00:00:00:00
Размер потока : 6,87 Гбайт (100%)
Gop_OpenClosed_FirstFrame : Closed
wolverrine вне форума   Ответить с цитированием
Старый 12.05.2015, 12:33   #4
warper Меню пользователя
Старший научный сотрудник
 
Аватар для warper
 
Регистрация: 10.07.2009
Сообщений: 1,505
Рейтинг: 354850
warper с Максимальным уровнем доверияwarper с Максимальным уровнем доверияwarper с Максимальным уровнем доверияwarper с Максимальным уровнем доверияwarper с Максимальным уровнем доверияwarper с Максимальным уровнем доверияwarper с Максимальным уровнем доверияwarper с Максимальным уровнем доверияwarper с Максимальным уровнем доверияwarper с Максимальным уровнем доверияwarper с Максимальным уровнем доверия
По умолчанию

Чем обусловлен выбор частоты кадров на выходе? Исходник 25 fps с чересстрочной развёрткой, на выходе 23,976 прогрессив. Помимо деинтерлейса делается resampling.

Можно избавиться от множества призраков, если отключить в настройках клипа resampling, а также выбрать в настройках проекта Deinterlace method: Interpolate fields. Но тогда упадёт вертикальное разрешение и пару раз в минуту будет повторение кадра. Лучше выводить в 25 fps - тогда, по крайней мере, повторения кадров не будет.
warper вне форума   Ответить с цитированием
Старый 15.05.2015, 20:09   #5
daos Меню пользователя
Старший научный сотрудник
 
Аватар для daos
 
Регистрация: 02.02.2009
Сообщений: 871
Рейтинг: 254830
daos с Максимальным уровнем доверияdaos с Максимальным уровнем доверияdaos с Максимальным уровнем доверияdaos с Максимальным уровнем доверияdaos с Максимальным уровнем доверияdaos с Максимальным уровнем доверияdaos с Максимальным уровнем доверияdaos с Максимальным уровнем доверияdaos с Максимальным уровнем доверияdaos с Максимальным уровнем доверияdaos с Максимальным уровнем доверия
По умолчанию

По виду больше похоже на включенный вегасовский моушен блюр...
__________________
Andy(sher) "тише едешь, ближе к финишу разобьешься"
daos вне форума   Ответить с цитированием
Ответ

Опции темы Поиск в этой теме
Поиск в этой теме:

Расширенный поиск
Опции просмотра

Ваши права в разделе
Вы не можете создавать новые темы
Вы не можете отвечать в темах
Вы не можете прикреплять вложения
Вы не можете редактировать свои сообщения

BB коды Вкл.
Смайлы Вкл.
[IMG] код Вкл.
HTML код Выкл.

Быстрый переход


Sony Vegas: ProVegas.ru
© 2008-2014 При полном или частичном использовании материалов ссылка на ProVegas.ru обязательна.


Часовой пояс GMT +4, время: 06:38.



Яндекс.Метрика