Перерендер DVD дисков. Нужен совет как лучше сделать - PROVEGAS.RU: SONY VEGAS FORUM
Нажмите для перехода на сайт ProVegas.ru  

Вернуться   PROVEGAS.RU: SONY VEGAS FORUM > ПРОГРАММНОЕ ОБЕСПЕЧЕНИЕ > Sony Vegas

Ответ
 
Опции темы Поиск в этой теме Опции просмотра
Старый 17.09.2017, 17:11   #1
Кристина Бз Меню пользователя
Любознайка
 
Аватар для Кристина Бз
 
Регистрация: 11.03.2009
Сообщений: 944
Рейтинг: 149414
Кристина Бз с Максимальным уровнем доверияКристина Бз с Максимальным уровнем доверияКристина Бз с Максимальным уровнем доверияКристина Бз с Максимальным уровнем доверияКристина Бз с Максимальным уровнем доверияКристина Бз с Максимальным уровнем доверияКристина Бз с Максимальным уровнем доверияКристина Бз с Максимальным уровнем доверияКристина Бз с Максимальным уровнем доверияКристина Бз с Максимальным уровнем доверияКристина Бз с Максимальным уровнем доверия
По умолчанию Перерендер DVD дисков. Нужен совет как лучше сделать

DVD диски потихоньку отмирают...
Мои знакомые на днях попросили меня переслать им видео, которое я несколько лет назад записала для них на DVD диск с меню.
Но новый диск им был не нужен, так как они уже не используют DVD приводы.
Казалось бы, чего проще! Берешь с диска VOB-файлы, загружаешь их на time line и поехали рендерить новый видеофайл.
И вот тут-то я и задумалась: а в какой формат кодить и с какими параметрами так, чтобы не потерять в качестве видеоряда.

Параметры файлов, в среднем, вот такие:



Прошу подсказать в какой формат и с какими параметрами нужно рендерить видео чтобы деградация качества видео была минимальной.
__________________
- Вы кто?
- Я - Добрая Фея.
- А чего с топором?
- Ах, как мало вы еще знаете о нас, добрых феях...
Кристина Бз вне форума   Ответить с цитированием
Старый 18.09.2017, 02:05   #2
Проходчик Меню пользователя
Старший научный сотрудник
 
Аватар для Проходчик
 
Регистрация: 30.05.2009
Сообщений: 1,607
Рейтинг: 416300
Проходчик с Максимальным уровнем доверияПроходчик с Максимальным уровнем доверияПроходчик с Максимальным уровнем доверияПроходчик с Максимальным уровнем доверияПроходчик с Максимальным уровнем доверияПроходчик с Максимальным уровнем доверияПроходчик с Максимальным уровнем доверияПроходчик с Максимальным уровнем доверияПроходчик с Максимальным уровнем доверияПроходчик с Максимальным уровнем доверияПроходчик с Максимальным уровнем доверия
По умолчанию

если предусматривается только воспроизведение на pc или tv, то тут тот же интерлейсный mpg2, с теми же параметрами, ну разве что битрейд видео можно приподнять, для успокоения грызущих сомнений. в этом случае видео будет с оригинальным качеством. если есть намерения запулить это дело в ютуб, или на мобильные девайсы -тут нужно подбирать прогрессивный avc, но тут будет много нюансов, для максимального сохранения и так никудышного качества видео..
__________________
Меня постоянно преследуют умные мысли - но я всегда быстрее...
Проходчик вне форума   Ответить с цитированием
Старый 18.09.2017, 14:14   #3
Lty Меню пользователя
Научный сотрудник
 
Аватар для Lty
 
Регистрация: 18.04.2012
Сообщений: 55
Рейтинг: 18928
Lty с Максимальным уровнем доверияLty с Максимальным уровнем доверияLty с Максимальным уровнем доверияLty с Максимальным уровнем доверияLty с Максимальным уровнем доверияLty с Максимальным уровнем доверияLty с Максимальным уровнем доверияLty с Максимальным уровнем доверияLty с Максимальным уровнем доверияLty с Максимальным уровнем доверияLty с Максимальным уровнем доверия
По умолчанию

Есть такая замечательная програмка MPEG Video Wizard DVD закидываешь туда vob и выводишь в mpeg2. Все это происходит без перекодировки. С флешки показывает на любом железном плееере.

Еще один момент если на линейку (любой программы) положить вобы в месте стыковки будут паузы, поэтому желательно объединить их в один например с помощью тотал командера
__________________
Снимаю. Порчу.
Lty вне форума   Ответить с цитированием
Старый 18.09.2017, 15:00   #4
jurisviii Меню пользователя
Самый научный сотрудник
 
Аватар для jurisviii
 
Регистрация: 09.05.2008
Сообщений: 9,543
Рейтинг: 662780
jurisviii с Максимальным уровнем доверияjurisviii с Максимальным уровнем доверияjurisviii с Максимальным уровнем доверияjurisviii с Максимальным уровнем доверияjurisviii с Максимальным уровнем доверияjurisviii с Максимальным уровнем доверияjurisviii с Максимальным уровнем доверияjurisviii с Максимальным уровнем доверияjurisviii с Максимальным уровнем доверияjurisviii с Максимальным уровнем доверияjurisviii с Максимальным уровнем доверия
По умолчанию

Цитата:
Сообщение от Кристина Бз Посмотреть сообщение
Казалось бы, чего проще! Берешь с диска VOB-файлы, загружаешь их на time line и поехали рендерить новый видеофайл.
И вот тут-то я и задумалась: а в какой формат кодить и с какими параметрами так, чтобы не потерять в качестве видеоряда.
...
Прошу подсказать в какой формат и с какими параметрами нужно рендерить видео чтобы деградация качества видео была минимальной.
Процесс этот обзывается DVD Rip, и он развивается уже более 20 лет. Это не делается монтажными программами, а применяется специально под это заточенные средства, которые обсуждается в специализированных форумах, из которых более уважаемым является http://forum.doom9.org/ У нас информации по такой тематике почти нет. Я в последнее время для подобных рипов DVD PAL использую формат MKV и кодек x265 с параметрами 768 или 1024x576@50p CQ=21
Например:

General
Unique ID : 181616897534455604567351904950104883396 (0x88A22463145372D9A856C00060B000C4)
Complete name : K:\_NEW_N\Revolūcijas eksportētāji.2017.DVBRip.x265.mkv
Format : Matroska
Format version : Version 4 / Version 2
File size : 374 MiB
Duration : 49 min 51 s
Overall bit rate : 1 049 kb/s
Movie name : Revolūcijas eksportētāji.2017.DVBRip.x265
Encoded date : UTC 2017-09-10 16:33:05
Writing application : mkvmerge v15.0.0 ('Duel with the Devil') 64-bit
Writing library : libebml v1.3.5 + libmatroska v1.4.5
Attachments : Revolūcijas Eksports.jpg / Revolūcijas Eksports.txt

Video
ID : 1
Format : HEVC
Format/Info : High Efficiency Video Coding
Format profile : Main@L3.1@Main
Codec ID : V_MPEGH/ISO/HEVC
Duration : 49 min 51 s
Bit rate : 886 kb/s
Width : 1 024 pixels
Height : 576 pixels
Display aspect ratio : 16:9
Frame rate mode : Constant
Frame rate : 25.000 FPS
Color space : YUV
Chroma subsampling : 4:2:0
Bit depth : 8 bits
Bits/(Pixel*Frame) : 0.060
Stream size : 316 MiB (85%)
Writing library : x265 2.5+12-fcd9154fa4e2:[Windows][GCC 7.1.0][64 bit] 8bit
Encoding settings : cpuid=1050111 / frame-threads=5 / numa-pools=4 / wpp / no-pmode / no-pme / no-psnr / no-ssim / log-level=3 / input-csp=1 / input-res=1024x576 / interlace=0 / total-frames=0 / level-idc=0 / high-tier=1 / uhd-bd=0 / ref=3 / no-allow-non-conformance / no-repeat-headers / annexb / no-aud / no-hrd / info / hash=0 / no-temporal-layers / open-gop / min-keyint=25 / keyint=250 / bframes=4 / b-adapt=2 / b-pyramid / bframe-bias=0 / rc-lookahead=20 / lookahead-slices=0 / scenecut=40 / no-intra-refresh / ctu=64 / min-cu-size=8 / no-rect / no-amp / max-tu-size=32 / tu-inter-depth=1 / tu-intra-depth=1 / limit-tu=0 / rdoq-level=0 / dynamic-rd=0.00 / no-ssim-rd / signhide / no-tskip / nr-intra=0 / nr-inter=0 / no-constrained-intra / strong-intra-smoothing / max-merge=2 / limit-refs=3 / no-limit-modes / me=1 / subme=2 / merange=57 / temporal-mvp / weightp / no-weightb / no-analyze-src-pics / deblock=-1:-1 / sao / no-sao-non-deblock / rd=3 / no-early-skip / rskip / no-fast-intra / no-tskip-fast / no-cu-lossless / no-b-intra / no-splitrd-skip / rdpenalty=0 / psy-rd=2.00 / psy-rdoq=0.00 / no-rd-refine / analysis-reuse-mode=0 / no-lossless / cbqpoffs=0 / crqpoffs=0 / rc=crf / crf=21.0 / qcomp=0.60 / qpstep=4 / stats-write=0 / stats-read=0 / ipratio=1.40 / pbratio=1.30 / aq-mode=1 / aq-strength=1.00 / cutree / zone-count=0 / no-strict-cbr / qg-size=32 / no-rc-grain / qpmax=69 / qpmin=0 / no-const-vbv / sar=1 / overscan=0 / videoformat=5 / range=0 / colorprim=2 / transfer=2 / colormatrix=2 / chromaloc=0 / display-window=0 / max-cll=0,0 / min-luma=0 / max-luma=255 / log2-max-poc-lsb=8 / vui-timing-info / vui-hrd-info / slices=1 / opt-qp-pps / opt-ref-list-length-pps / no-multi-pass-opt-rps / scenecut-bias=0.05 / no-opt-cu-delta-qp / no-aq-motion / no-hdr / no-hdr-opt / no-dhdr10-opt / analysis-reuse-level=5 / scale-factor=0 / refine-intra=0 / refine-inter=0 / refine-mv=0 / no-limit-sao / ctu-info=0
Language : Latvian
Default : Yes
Forced : No
Color range : Full

Audio
ID : 2
Format : AAC
Format/Info : Advanced Audio Codec
Format profile : LC
Codec ID : A_AAC-2
Duration : 49 min 51 s
Bit rate : 160 kb/s
Channel(s) : 2 channels
Channel positions : Front: L R
Sampling rate : 48.0 kHz
Frame rate : 46.875 FPS (1024 SPF)
Compression mode : Lossy
Stream size : 57.1 MiB (15%)
Language : Latvian
Default : Yes
Forced : No
jurisviii вне форума   Ответить с цитированием
Старый 19.09.2017, 01:15   #5
Кристина Бз Меню пользователя
Любознайка
 
Аватар для Кристина Бз
 
Регистрация: 11.03.2009
Сообщений: 944
Рейтинг: 149414
Кристина Бз с Максимальным уровнем доверияКристина Бз с Максимальным уровнем доверияКристина Бз с Максимальным уровнем доверияКристина Бз с Максимальным уровнем доверияКристина Бз с Максимальным уровнем доверияКристина Бз с Максимальным уровнем доверияКристина Бз с Максимальным уровнем доверияКристина Бз с Максимальным уровнем доверияКристина Бз с Максимальным уровнем доверияКристина Бз с Максимальным уровнем доверияКристина Бз с Максимальным уровнем доверия
Talking

Понятно! Всем спасибки!
Буду экспериментировать.

Цитата:
Сообщение от jurisviii Посмотреть сообщение
.... Я в последнее время для подобных рипов DVD PAL использую формат MKV и кодек x265 с параметрами 768 или 1024x576@50p CQ=21
Юрис, но ведь это кодек HEVC. Он еще не получил широкого распространения и я думаю, что далеко не все LED-TV могут его воспроизводить...
__________________
- Вы кто?
- Я - Добрая Фея.
- А чего с топором?
- Ах, как мало вы еще знаете о нас, добрых феях...

Последний раз редактировалось Кристина Бз; 19.09.2017 в 11:39. Причина: Automerged Doublepost
Кристина Бз вне форума   Ответить с цитированием
Ответ

Опции темы Поиск в этой теме
Поиск в этой теме:

Расширенный поиск
Опции просмотра

Ваши права в разделе
Вы не можете создавать новые темы
Вы не можете отвечать в темах
Вы не можете прикреплять вложения
Вы не можете редактировать свои сообщения

BB коды Вкл.
Смайлы Вкл.
[IMG] код Вкл.
HTML код Выкл.

Быстрый переход


Sony Vegas: ProVegas.ru
© 2008-2014 При полном или частичном использовании материалов ссылка на ProVegas.ru обязательна.


Часовой пояс GMT +4, время: 10:45.



Яндекс.Метрика