Картинка не видна в AVI-файла - PROVEGAS.RU: SONY VEGAS FORUM
Нажмите для перехода на сайт ProVegas.ru  

Вернуться   PROVEGAS.RU: SONY VEGAS FORUM > ПРОГРАММНОЕ ОБЕСПЕЧЕНИЕ > Sony Vegas > русифицированный Vegas

Ответ
 
Опции темы Поиск в этой теме Опции просмотра
Старый 08.07.2018, 20:46   #1
ДмитрийПопов Меню пользователя
Научный сотрудник
 
Регистрация: 30.07.2015
Сообщений: 91
Рейтинг: 6597
ДмитрийПопов с Максимальным уровнем доверияДмитрийПопов с Максимальным уровнем доверияДмитрийПопов с Максимальным уровнем доверияДмитрийПопов с Максимальным уровнем доверияДмитрийПопов с Максимальным уровнем доверияДмитрийПопов с Максимальным уровнем доверияДмитрийПопов с Максимальным уровнем доверияДмитрийПопов с Максимальным уровнем доверияДмитрийПопов с Максимальным уровнем доверияДмитрийПопов с Максимальным уровнем доверияДмитрийПопов с Максимальным уровнем доверия
По умолчанию Картинка не видна в AVI-файла

Картинку не видно в некоторых НЕ ВСЕХ AVI-файлах в 14-м вегасе.
Медиаинфо
Общее
Формат : AVI
Формат/Информация : Audio Video Interleave
Размер файла : 161 Мбайт
Продолжительность : 1 м. 53 с.
Общий поток : 12,0 Мбит/сек

Видео
Идентификатор : 0
Формат : JPEG
Идентификатор кодека : MJPG
Продолжительность : 1 м. 53 с.
Битрейт : 11,7 Мбит/сек
Ширина : 1280 пикселей
Высота : 720 пикселей
Соотношение сторон : 16:9
Частота кадров : 30,000 кадров/сек
Цветовое пространство : YUV
Субдискретизация насыщенности : 4:2:2
Битовая глубина : 8 бит
Метод сжатия : С потерями
Бит/(Пиксели*Кадры) : 0.423
Размер потока : 157 Мбайт (98%)

Аудио
Идентификатор : 1
Формат : PCM
Настройки формата : Little / Signed
Идентификатор кодека : 1
Продолжительность : 1 м. 53 с.
Вид битрейта : Постоянный
Битрейт : 256 Кбит/сек
Каналы : 1 канал
Частота : 16,0 КГц
Битовая глубина : 16 бит
Размер потока : 3,45 Мбайт (2%)
Выравнивание : Соединение по промежуткам
Продолжительность промежутка : 200 мс. (6,00 видеокадров)
Время предзагрузки промежутка : 200 мс.

Эти видосы я на фотик DEXP DC5100 снимал. В проигрывателях эти видео воспроизводятся.
ДмитрийПопов вне форума   Ответить с цитированием
Старый 09.07.2018, 03:19   #2
Проходчик Меню пользователя
Старший научный сотрудник
 
Аватар для Проходчик
 
Регистрация: 30.05.2009
Сообщений: 1,607
Рейтинг: 416300
Проходчик с Максимальным уровнем доверияПроходчик с Максимальным уровнем доверияПроходчик с Максимальным уровнем доверияПроходчик с Максимальным уровнем доверияПроходчик с Максимальным уровнем доверияПроходчик с Максимальным уровнем доверияПроходчик с Максимальным уровнем доверияПроходчик с Максимальным уровнем доверияПроходчик с Максимальным уровнем доверияПроходчик с Максимальным уровнем доверияПроходчик с Максимальным уровнем доверия
По умолчанию

Вегас использует MJPEG декодер, который в текущей системе имеет высший меррит, т.е приоритет. Видимо версия этого декодера не совпадает с той, которой кодировалось виде в фотоаппарате, или , вариант -вообще отсутствует требуемый кодек. Проигрывателям достаточно DS фильтра для показа видео, Вегасу необходим полноценный декодер. Если точно уверен что нужный кодек у тебя установлен, то G Spot поможет настроить приоритеты...
__________________
Меня постоянно преследуют умные мысли - но я всегда быстрее...
Проходчик вне форума   Ответить с цитированием
Старый 09.07.2018, 11:48   #3
ДмитрийПопов Меню пользователя
Научный сотрудник
 
Регистрация: 30.07.2015
Сообщений: 91
Рейтинг: 6597
ДмитрийПопов с Максимальным уровнем доверияДмитрийПопов с Максимальным уровнем доверияДмитрийПопов с Максимальным уровнем доверияДмитрийПопов с Максимальным уровнем доверияДмитрийПопов с Максимальным уровнем доверияДмитрийПопов с Максимальным уровнем доверияДмитрийПопов с Максимальным уровнем доверияДмитрийПопов с Максимальным уровнем доверияДмитрийПопов с Максимальным уровнем доверияДмитрийПопов с Максимальным уровнем доверияДмитрийПопов с Максимальным уровнем доверия
По умолчанию

А что такое G Spot?
ДмитрийПопов вне форума   Ответить с цитированием
Ответ

Теги
audio video interleave, avi, ави

Опции темы Поиск в этой теме
Поиск в этой теме:

Расширенный поиск
Опции просмотра

Ваши права в разделе
Вы не можете создавать новые темы
Вы не можете отвечать в темах
Вы не можете прикреплять вложения
Вы не можете редактировать свои сообщения

BB коды Вкл.
Смайлы Вкл.
[IMG] код Вкл.
HTML код Выкл.

Быстрый переход


Sony Vegas: ProVegas.ru
© 2008-2014 При полном или частичном использовании материалов ссылка на ProVegas.ru обязательна.


Часовой пояс GMT +4, время: 14:05.



Яндекс.Метрика