Не читает видео в формате .MTS - PROVEGAS.RU: SONY VEGAS FORUM
Нажмите для перехода на сайт ProVegas.ru  

Вернуться   PROVEGAS.RU: SONY VEGAS FORUM > ПРОГРАММНОЕ ОБЕСПЕЧЕНИЕ > Sony Vegas

Ответ
 
Опции темы Поиск в этой теме Опции просмотра
Старый 14.04.2019, 19:31   #1
antikot Меню пользователя
Стажер
 
Регистрация: 14.04.2019
Сообщений: 2
Рейтинг: 10
antikot с Первым уровенем доверия
По умолчанию Не читает видео в формате .MTS

Всем здравствуйте.
В принципе из названия темы всё понятно: мой вегас про 12 не открывает формат .mts
когда скидываю файл на таймлайн, то отображается только аудиодорожка.
Нигде не могу найти решение этой проблемы(( Помогите, пожалуйста.
antikot вне форума   Ответить с цитированием
Старый 14.04.2019, 22:28   #2
jurisviii Меню пользователя
Самый научный сотрудник
 
Аватар для jurisviii
 
Регистрация: 09.05.2008
Сообщений: 9,543
Рейтинг: 662780
jurisviii с Максимальным уровнем доверияjurisviii с Максимальным уровнем доверияjurisviii с Максимальным уровнем доверияjurisviii с Максимальным уровнем доверияjurisviii с Максимальным уровнем доверияjurisviii с Максимальным уровнем доверияjurisviii с Максимальным уровнем доверияjurisviii с Максимальным уровнем доверияjurisviii с Максимальным уровнем доверияjurisviii с Максимальным уровнем доверияjurisviii с Максимальным уровнем доверия
По умолчанию

http://provegas.ru/forum/showpost.ph...91&postcount=3
jurisviii вне форума   Ответить с цитированием
Старый 14.04.2019, 23:07   #3
antikot Меню пользователя
Стажер
 
Регистрация: 14.04.2019
Сообщений: 2
Рейтинг: 10
antikot с Первым уровенем доверия
По умолчанию

jurisviii, спасибо, исправился.

General
ID : 0 (0x0)
Complete name : F:\Инстаграмм\Неопубликованные\Happy Birthday 30\20190412141255.MTS
Format : BDAV
Format/Info : Blu-ray Video
File size : 85.1 MiB
Duration : 43 s 568 ms
Overall bit rate mode : Variable
Overall bit rate : 16.4 Mb/s
Maximum Overall bit rate : 18.0 Mb/s
Recorded date : 2019-04-12 14:12:55+04:00
Writing application : Sony SLT-A37

Video
ID : 4113 (0x1011)
Menu ID : 1 (0x1)
Format : AVC
Format/Info : Advanced Video Codec
Format profile : High@L4
Format settings : CABAC / 2 Ref Frames
Format settings, CABAC : Yes
Format settings, RefFrames : 2 frames
Format settings, GOP : M=2, N=13
Codec ID : 27
Duration : 43 s 600 ms
Bit rate mode : Variable
Bit rate : 15.5 Mb/s
Maximum bit rate : 16.0 Mb/s
Width : 1 920 pixels
Height : 1 080 pixels
Display aspect ratio : 16:9
Frame rate : 25.000 FPS
Color space : YUV
Chroma subsampling : 4:2:0
Bit depth : 8 bits
Scan type : Interlaced
Scan type, store method : Separated fields
Scan order : Top Field First
Bits/(Pixel*Frame) : 0.298
Stream size : 80.4 MiB (94%)
IrisFNumber : 3.500000

Audio
ID : 4352 (0x1100)
Menu ID : 1 (0x1)
Format : AC-3
Format/Info : Audio Coding 3
Commercial name : Dolby Digital
Codec ID : 129
Duration : 43 s 680 ms
Bit rate mode : Constant
Bit rate : 256 kb/s
Channel(s) : 2 channels
Channel layout : L R
Sampling rate : 48.0 kHz
Frame rate : 31.250 FPS (1536 SPF)
Bit depth : 16 bits
Compression mode : Lossy
Delay relative to video : -80 ms
Stream size : 1.33 MiB (2%)
Service kind : Complete Main


Последний раз редактировалось antikot; 14.04.2019 в 23:21.
antikot вне форума   Ответить с цитированием
Старый 15.04.2019, 11:37   #4
jurisviii Меню пользователя
Самый научный сотрудник
 
Аватар для jurisviii
 
Регистрация: 09.05.2008
Сообщений: 9,543
Рейтинг: 662780
jurisviii с Максимальным уровнем доверияjurisviii с Максимальным уровнем доверияjurisviii с Максимальным уровнем доверияjurisviii с Максимальным уровнем доверияjurisviii с Максимальным уровнем доверияjurisviii с Максимальным уровнем доверияjurisviii с Максимальным уровнем доверияjurisviii с Максимальным уровнем доверияjurisviii с Максимальным уровнем доверияjurisviii с Максимальным уровнем доверияjurisviii с Максимальным уровнем доверия
По умолчанию

к сожалению, не могу обрадовать... файл совершенно стандартный, и должен открываться любой разумной версией вегаса включая 12ую без дополнительных телодвижений. причиной иного поведения часто бывает замусоренная система. можно пробовать убирать двойных однотипных кодеков, но возможно быстрее будет поставить свежую чистую систему.
jurisviii вне форума   Ответить с цитированием
Ответ

Теги
.mts, mts

Опции темы Поиск в этой теме
Поиск в этой теме:

Расширенный поиск
Опции просмотра

Ваши права в разделе
Вы не можете создавать новые темы
Вы не можете отвечать в темах
Вы не можете прикреплять вложения
Вы не можете редактировать свои сообщения

BB коды Вкл.
Смайлы Вкл.
[IMG] код Вкл.
HTML код Выкл.

Быстрый переход


Sony Vegas: ProVegas.ru
© 2008-2014 При полном или частичном использовании материалов ссылка на ProVegas.ru обязательна.


Часовой пояс GMT +4, время: 22:00.



Яндекс.Метрика