Нажмите для перехода на сайт ProVegas.ru  

Вернуться   PROVEGAS.RU: SONY VEGAS FORUM > ВИДЕО И ЗВУК. ОБЩИЕ ВОПРОСЫ И ТЕХНОЛОГИИ. > Звук

Ответ
 
Опции темы Поиск в этой теме Опции просмотра
Старый 30.03.2017, 20:35   #1
Smotrov Меню пользователя
Научный сотрудник
 
Регистрация: 16.07.2015
Сообщений: 35
Рейтинг: 13413
Smotrov с Максимальным уровнем доверияSmotrov с Максимальным уровнем доверияSmotrov с Максимальным уровнем доверияSmotrov с Максимальным уровнем доверияSmotrov с Максимальным уровнем доверияSmotrov с Максимальным уровнем доверияSmotrov с Максимальным уровнем доверияSmotrov с Максимальным уровнем доверияSmotrov с Максимальным уровнем доверияSmotrov с Максимальным уровнем доверияSmotrov с Максимальным уровнем доверия
По умолчанию Какой кодек нужен

Подскажите, пожалуйста, какой кодек нужен, чтобы Sony Vegas 13 (win 7 x64) открывал с аудиодорожкой такие файлы? Вегас только видеодорожку подхватывает.
Желательно указать, где можно скачать, ну или хотя бы что именно искать.

General
Complete name : E:\Гайдай, УС2, Рязанов\Гайдай\Иван Васильевич Меняет Профессию.avi
Format : AVI
Format/Info : Audio Video Interleave
File size : 1.46 GiB
Duration : 1h 31mn
Overall bit rate : 2 275 Kbps
Movie name : Ivan_Vasilevich_menyaet_professiu_1973_BDRip
Writing application : VirtualDubMod 1.5.10.2 (build 2540/release)

Video
ID : 0
Format : MPEG-4 Visual
Format profile : Advanced Simple@L5
Format settings, BVOP : 1
Format settings, QPel : No
Format settings, GMC : No warppoints
Format settings, Matrix : Custom
Codec ID : XVID
Codec ID/Hint : XviD
Duration : 1h 31mn
Bit rate : 1 817 Kbps
Width : 704 pixels
Height : 512 pixels
Display aspect ratio : 1.375
Frame rate : 23.976 fps
Color space : YUV
Chroma subsampling : 4:2:0
Bit depth : 8 bits
Scan type : Progressive
Compression mode : Lossy
Bits/(Pixel*Frame) : 0.210
Stream size : 1.16 GiB (80%)
Writing library : XviD 1.2.1 (UTC 2008-12-04)

Audio
ID : 1
Format : AC-3
Format/Info : Audio Coding 3
Mode extension : CM (complete main)
Format settings, Endianness : Big
Codec ID : 2000
Duration : 1h 31mn
Bit rate mode : Constant
Bit rate : 448 Kbps
Channel(s) : 6 channels
Channel positions : Front: L C R, Side: L R, LFE
Sampling rate : 48.0 KHz
Bit depth : 16 bits
Compression mode : Lossy
Stream size : 294 MiB (20%)
Alignment : Split accross interleaves
Interleave, duration : 42 ms (1.00 video frame)
Interleave, preload duration : 500 ms



Разобрался. Поставил это http://www.softportal.com/get-5244-ac3filter.html
Помогла тема http://rutracker.org/forum/viewtopic.php?t=4115423

Последний раз редактировалось Smotrov; 30.03.2017 в 20:51. Причина: Automerged Doublepost
Smotrov вне форума   Ответить с цитированием
Старый 31.03.2017, 04:29   #2
vovke Меню пользователя
Старший научный сотрудник
 
Аватар для vovke
 
Регистрация: 07.11.2012
Сообщений: 498
Рейтинг: 132891
vovke с Максимальным уровнем доверияvovke с Максимальным уровнем доверияvovke с Максимальным уровнем доверияvovke с Максимальным уровнем доверияvovke с Максимальным уровнем доверияvovke с Максимальным уровнем доверияvovke с Максимальным уровнем доверияvovke с Максимальным уровнем доверияvovke с Максимальным уровнем доверияvovke с Максимальным уровнем доверияvovke с Максимальным уровнем доверия
По умолчанию

Достаточно этого будет ac3 acm
Тыщу раз уже писали про шестиканальник
Кста, тормозить будет отчаянно…
__________________
Не трахайте мне мозги, знания половым путём не передаются!
vovke вне форума   Ответить с цитированием
Старый 01.04.2017, 12:21   #3
Smotrov Меню пользователя
Научный сотрудник
 
Регистрация: 16.07.2015
Сообщений: 35
Рейтинг: 13413
Smotrov с Максимальным уровнем доверияSmotrov с Максимальным уровнем доверияSmotrov с Максимальным уровнем доверияSmotrov с Максимальным уровнем доверияSmotrov с Максимальным уровнем доверияSmotrov с Максимальным уровнем доверияSmotrov с Максимальным уровнем доверияSmotrov с Максимальным уровнем доверияSmotrov с Максимальным уровнем доверияSmotrov с Максимальным уровнем доверияSmotrov с Максимальным уровнем доверия
По умолчанию

Спасибо, а я думал, почему тормозит)
Smotrov вне форума   Ответить с цитированием
Старый 22.01.2018, 06:55   #4
Stregmode Меню пользователя
Стажер
 
Регистрация: 02.06.2017
Сообщений: 17
Рейтинг: 80653
Stregmode с Максимальным уровнем доверияStregmode с Максимальным уровнем доверияStregmode с Максимальным уровнем доверияStregmode с Максимальным уровнем доверияStregmode с Максимальным уровнем доверияStregmode с Максимальным уровнем доверияStregmode с Максимальным уровнем доверияStregmode с Максимальным уровнем доверияStregmode с Максимальным уровнем доверияStregmode с Максимальным уровнем доверияStregmode с Максимальным уровнем доверия
По умолчанию

Что делать чтобы не тормозило?
Stregmode вне форума   Ответить с цитированием
Ответ

Опции темы Поиск в этой теме
Поиск в этой теме:

Расширенный поиск
Опции просмотра

Ваши права в разделе
Вы не можете создавать новые темы
Вы не можете отвечать в темах
Вы не можете прикреплять вложения
Вы не можете редактировать свои сообщения

BB коды Вкл.
Смайлы Вкл.
[IMG] код Вкл.
HTML код Выкл.

Быстрый переход


Sony Vegas: ProVegas.ru
© 2008-2014 При полном или частичном использовании материалов ссылка на ProVegas.ru обязательна.


Часовой пояс GMT +4, время: 16:41.



Яндекс.Метрика