Vegas + Youtube + Samsung S9+ - PROVEGAS.RU: SONY VEGAS FORUM
Нажмите для перехода на сайт ProVegas.ru  

Вернуться   PROVEGAS.RU: SONY VEGAS FORUM > ПРОГРАММНОЕ ОБЕСПЕЧЕНИЕ > Sony Vegas

 
 
Опции темы Поиск в этой теме Опции просмотра
Prev Предыдущее сообщение   Следующее сообщение Next
Старый 26.05.2019, 19:22   #1
gromila9 Меню пользователя
Стажер
 
Регистрация: 26.05.2019
Сообщений: 5
Рейтинг: 10
gromila9 с Первым уровенем доверия
SOS Vegas + Youtube + Samsung S9+

Доброго дня, друзья.
Нужна помощь.

Снимаю видео на Samsung S9+ в Filmic Pro
(с родным приложением для камеры тоже самое)
При загрузке на ютуб или в ВК сильно режет качество.

Получаю такую картинку:
https://yadi.sk/i/zXde9pe6Jy9cmA
Из такой:
https://yadi.sk/i/O2NtO6CVfJ-uPw

Сильно падает Bits/(Pixel*Frame): с 1.508 до 0.072

Пиксели в пол экрана.
Как только не рендерил в Вегасе, что только не делал, пока победить не смог. ютуб режет битрейт и качество видео как в 2000 на первые мобилы и это при том, что камера самсунга позиционировалась как одна из лучших.

Настройки:
https://yadi.sk/i/4L_0COH5UFpouQ

Настройки проекта:
https://yadi.sk/i/wcxo9VtChtIFrg

Должно же быть какое-то решение.

--
Исходник:
Video: MPEG4 Video (H264) 1920x1080 120fps 75073kbps [V: VideoHandle [eng] (h264 baseline L1.0, yuv420p, 1920x1080, 75073 kb/s)]
Audio: AAC 44100Hz stereo 255kbps [A: SoundHandle [eng] (aac lc, 44100 Hz, stereo, 255 kb/s)]

General
Complete name : D:\VID_20190524_193141_0.mp4
Format : MPEG-4
Format profile : Base Media / Version 2
Codec ID : mp42 (isom/mp42)
File size : 3.80 GiB
Duration : 7 min 13 s
Overall bit rate : 75.3 Mb/s
Encoded date : UTC 2019-05-24 16:38:55
Tagged date : UTC 2019-05-24 16:38:55
com.android.version : 9

Video
ID : 1
Format : AVC
Format/Info : Advanced Video Codec
Format profile : Baseline@L1
Format settings : 1 Ref Frames
Format settings, CABAC : No
Format settings, Reference fra : 1 frame
Format settings, GOP : M=1, N=48
Codec ID : avc1
Codec ID/Info : Advanced Video Coding
Duration : 7 min 13 s
Bit rate : 75.0 Mb/s
Width : 1 920 pixels
Height : 1 080 pixels
Display aspect ratio : 16:9
Frame rate mode : Variable
Frame rate : 24.000 FPS
Minimum frame rate : 19.359 FPS
Maximum frame rate : 31.601 FPS
Color space : YUV
Chroma subsampling : 4:2:0
Bit depth : 8 bits
Scan type : Progressive
Bits/(Pixel*Frame) : 1.508
Stream size : 3.79 GiB (100%)
Title : VideoHandle
Language : English
Encoded date : UTC 2019-05-24 16:38:55
Tagged date : UTC 2019-05-24 16:38:55
Color range : Limited
Color primaries : BT.709
Transfer characteristics : BT.601
Matrix coefficients : BT.709
Codec configuration box : avcC

Audio
ID : 2
Format : AAC LC
Format/Info : Advanced Audio Codec Low Complexity
Codec ID : mp4a-40-2
Duration : 7 min 13 s
Bit rate mode : Constant
Bit rate : 256 kb/s
Channel(s) : 2 channels
Channel layout : L R
Sampling rate : 44.1 kHz
Frame rate : 43.066 FPS (1024 SPF)
Compression mode : Lossy
Stream size : 13.2 MiB (0%)
Title : SoundHandle
Language : English
Encoded date : UTC 2019-05-24 16:38:55
Tagged date : UTC 2019-05-24 16:38:55

Есть профи? Как победить?
gromila9 вне форума   Ответить с цитированием
 

Опции темы Поиск в этой теме
Поиск в этой теме:

Расширенный поиск
Опции просмотра

Ваши права в разделе
Вы не можете создавать новые темы
Вы не можете отвечать в темах
Вы не можете прикреплять вложения
Вы не можете редактировать свои сообщения

BB коды Вкл.
Смайлы Вкл.
[IMG] код Вкл.
HTML код Выкл.

Быстрый переход


Sony Vegas: ProVegas.ru
© 2008-2014 При полном или частичном использовании материалов ссылка на ProVegas.ru обязательна.


Часовой пояс GMT +4, время: 22:25.



Яндекс.Метрика