Vegas Pro 14 - Страница 5 - PROVEGAS.RU: SONY VEGAS FORUM
Нажмите для перехода на сайт ProVegas.ru  

Вернуться   PROVEGAS.RU: SONY VEGAS FORUM > ПРОГРАММНОЕ ОБЕСПЕЧЕНИЕ > Sony Vegas

Ответ
 
Опции темы Поиск в этой теме Опции просмотра
Старый 17.11.2016, 15:00   #61
PNC Меню пользователя
Стажер
 
Регистрация: 28.05.2009
Сообщений: 19
Рейтинг: 10
PNC с Первым уровенем доверия
По умолчанию

камрады, что за фигня, перешел с 13ой на 14(черт дернул) в исходнике все гуд, а в вегасе при проигрывании и на выводе видео сыпет квадратиками битыми((
wtf???
вот видео которое импортирую небольшой фрагмент
https://cloud.mail.ru/public/KNQj/Q27boYQtw
вот так у меня на превью в квадратиках


Цитата:
Сообщение от Andrey Посмотреть сообщение
Странную и необъяснимую вещь заметил во время предпросмотра. На видео иногда появляются артефакты, испугался, думал битые файлы, после рендера все (артефакты) осталось на своих местах. Решил проверить в премьере эти же места, там все в порядке. Откуда ноги растут у такой бяки? Кстати в 13-м Вегасе то же самое.
ооо я смотрю не один!!! в 13м у меня все ОК было!

Последний раз редактировалось PNC; 17.11.2016 в 15:02. Причина: Automerged Doublepost
PNC вне форума   Ответить с цитированием
Старый 17.11.2016, 18:50   #62
Dood7 Меню пользователя
Старший научный сотрудник
 
Регистрация: 29.06.2015
Сообщений: 257
Рейтинг: 110037
Dood7 с Максимальным уровнем доверияDood7 с Максимальным уровнем доверияDood7 с Максимальным уровнем доверияDood7 с Максимальным уровнем доверияDood7 с Максимальным уровнем доверияDood7 с Максимальным уровнем доверияDood7 с Максимальным уровнем доверияDood7 с Максимальным уровнем доверияDood7 с Максимальным уровнем доверияDood7 с Максимальным уровнем доверияDood7 с Максимальным уровнем доверия
По умолчанию

Цитата:
Сообщение от pnc Посмотреть сообщение
... в исходнике все гуд, а в вегасе при проигрывании и на выводе видео сыпет квадратиками битыми((...
а как дела обстоят с просмотром на проигрывателе видеофайла, полученного в результате рендера с наивысшим качеством? или "... на выводе..." - это и есть результат рендера с наивысшим качеством?
Dood7 вне форума   Ответить с цитированием
Старый 18.11.2016, 11:10   #63
PNC Меню пользователя
Стажер
 
Регистрация: 28.05.2009
Сообщений: 19
Рейтинг: 10
PNC с Первым уровенем доверия
По умолчанию

Цитата:
Сообщение от dood7 Посмотреть сообщение
а как дела обстоят с просмотром на проигрывателе видеофайла, полученного в результате рендера с наивысшим качеством? или "... на выводе..." - это и есть результат рендера с наивысшим качеством?
поигрался с перебором качества, сыпит квадратами, причем не только указанное видео, позапускал готовые проекты из 13го таже картина. снес 14 гемморой нахрен))
PNC вне форума   Ответить с цитированием
Старый 18.11.2016, 12:27   #64
vsorkin Меню пользователя
Старший научный сотрудник
 
Аватар для vsorkin
 
Регистрация: 21.01.2009
Сообщений: 310
Рейтинг: 324391
vsorkin с Максимальным уровнем доверияvsorkin с Максимальным уровнем доверияvsorkin с Максимальным уровнем доверияvsorkin с Максимальным уровнем доверияvsorkin с Максимальным уровнем доверияvsorkin с Максимальным уровнем доверияvsorkin с Максимальным уровнем доверияvsorkin с Максимальным уровнем доверияvsorkin с Максимальным уровнем доверияvsorkin с Максимальным уровнем доверияvsorkin с Максимальным уровнем доверия
По умолчанию

PNC, выдержка из отчета MediaInfo для семпла, который вы опубликовали:
Frame rate mode : Variable
Frame rate : 30.000 fps
Minimum frame rate : 28.195 fps
Maximum frame rate : 32.108 fps
На официальном форуме Vegas-a достаточно схожих жалоб на артефакты
в исходниках с переменным режимом частоты кадров.
Не хочу утверждать, что устройство на которое вы снимаете "делает неправильный мед", но я бы не стал брать такие файлы напрямую в монтаж.
Даже, если в 13-й версии проблема сразу не проявляется - может "аукнуться" потом(например при применении эффектов, ускорений/замедлений и т.д.). Транскодируйте в "удобный" формат и спокойно работайте.

Последний раз редактировалось jurisviii; 18.11.2016 в 12:55. Причина: Нарушение пункта 2.4 правил форума
vsorkin вне форума   Ответить с цитированием
Старый 18.11.2016, 22:02   #65
Andrey Меню пользователя
Старший научный сотрудник
 
Регистрация: 12.05.2008
Сообщений: 360
Рейтинг: 226111
Andrey с Максимальным уровнем доверияAndrey с Максимальным уровнем доверияAndrey с Максимальным уровнем доверияAndrey с Максимальным уровнем доверияAndrey с Максимальным уровнем доверияAndrey с Максимальным уровнем доверияAndrey с Максимальным уровнем доверияAndrey с Максимальным уровнем доверияAndrey с Максимальным уровнем доверияAndrey с Максимальным уровнем доверияAndrey с Максимальным уровнем доверия
По умолчанию

Свойства проекта

Вывод:



Медиаинфо файлов:
Общее
Идентификатор : 1 (0x1)
Полное имя : E:\Temp Video\20160806\видео\2\00009_20160806_163324.mts
Формат : BDAV
Формат/Информация : Blu-ray Video
Размер файла : 92,7 Мбайт
Продолжительность : 36 с. 463 мс.
Режим общего битрейта : Переменный
Общий поток : 21,3 Мбит/сек
Максимальный общий битрейт : 24,0 Мбит/сек

Видео
Идентификатор : 4113 (0x1011)
Идентификатор меню : 1 (0x1)
Формат : AVC
Формат/Информация : Advanced Video Codec
Профиль формата : High@L4
Параметр CABAC формата : Да
Параметр ReFrames формата : 4 кадра
Параметр GOP формата : M=3, N=12
Идентификатор кодека : 27
Продолжительность : 36 с. 400 мс.
Вид битрейта : Переменный
Битрейт : 20,1 Мбит/сек
Максимальный битрейт : 20,9 Мбит/сек
Ширина : 1920 пикселей
Высота : 1080 пикселей
Соотношение сторон : 16:9
Частота кадров : 25,000 кадров/сек
Цветовое пространство : YUV
Субдискретизация насыщенности : 4:2:0
Битовая глубина : 8 бит
Тип развёртки : Чересстрочная
Метод сохранения типа развёртки : Раздельные поля
Порядок развёртки : Верхнее поле первое
Бит/(Пиксели*Кадры) : 0.387
Размер потока : 87,2 Мбайт (94%)

Аудио
Идентификатор : 4352 (0x1100)
Идентификатор меню : 1 (0x1)
Формат : AC-3
Формат/Информация : Audio Coding 3
Расширение режима : CM (complete main)
Параметр Endianness формата : Big
Идентификатор кодека : 129
Продолжительность : 36 с. 512 мс.
Вид битрейта : Постоянный
Битрейт : 384 Кбит/сек
Каналы : 2 канала
Расположение каналов : Front: L R
Частота : 48,0 КГц
Частота кадров : 31,250 кадров/сек (1536 spf)
Метод сжатия : С потерями
Задержка видео : -80 мс.
Размер потока : 1,67 Мбайт (2%)


Ну и результат видно в моем последнем посте 3 сек. видео. Вся эта "шляпа" появилась именно после установки 14-го Вегаса и к сожалению проявилась и в 13-м, у меня во всяком случае.
Andrey вне форума   Ответить с цитированием
Старый 19.11.2016, 08:42   #66
jurisviii Меню пользователя
Самый научный сотрудник
 
Аватар для jurisviii
 
Регистрация: 09.05.2008
Сообщений: 9,518
Рейтинг: 662780
jurisviii с Максимальным уровнем доверияjurisviii с Максимальным уровнем доверияjurisviii с Максимальным уровнем доверияjurisviii с Максимальным уровнем доверияjurisviii с Максимальным уровнем доверияjurisviii с Максимальным уровнем доверияjurisviii с Максимальным уровнем доверияjurisviii с Максимальным уровнем доверияjurisviii с Максимальным уровнем доверияjurisviii с Максимальным уровнем доверияjurisviii с Максимальным уровнем доверия
По умолчанию

Коллеги, уважайте свою работу!

1. Не применять галочку Adjust source media to better... без исключительной надобности.
2. Для оконечного высококачественного просчета применять только CPU.
3. Оконечный просчет делать в профессиональном формате, позволяющем потом делать необходимых поправок без полного перекодирования всего материала (XDCam IMX, XDCAM HD, XAVC-I итп.).
Для просчета потом для BD, DVD, TV или инета можно применить любых кодеров по желанию и вкусу, включая и вегаса, быстрых, качественных, специальных форматов итп.
jurisviii вне форума   Ответить с цитированием
Старый 19.11.2016, 12:39   #67
Andrey Меню пользователя
Старший научный сотрудник
 
Регистрация: 12.05.2008
Сообщений: 360
Рейтинг: 226111
Andrey с Максимальным уровнем доверияAndrey с Максимальным уровнем доверияAndrey с Максимальным уровнем доверияAndrey с Максимальным уровнем доверияAndrey с Максимальным уровнем доверияAndrey с Максимальным уровнем доверияAndrey с Максимальным уровнем доверияAndrey с Максимальным уровнем доверияAndrey с Максимальным уровнем доверияAndrey с Максимальным уровнем доверияAndrey с Максимальным уровнем доверия
По умолчанию

jurisviii спасибо конечно, но можно подробней.
пункты 1 и два понятны, без коментариев.
пункт 3: в моей работе поправки могут иметь место очень редко, поэтому нет никакого смысла (опять же, для меня) заниматься двойной перегонкой (не самогон ведь ). Чем мой пресет плох он на скорую руку и для интернета, что бы показать дефект.
Andrey вне форума   Ответить с цитированием
Старый 19.11.2016, 13:41   #68
jurisviii Меню пользователя
Самый научный сотрудник
 
Аватар для jurisviii
 
Регистрация: 09.05.2008
Сообщений: 9,518
Рейтинг: 662780
jurisviii с Максимальным уровнем доверияjurisviii с Максимальным уровнем доверияjurisviii с Максимальным уровнем доверияjurisviii с Максимальным уровнем доверияjurisviii с Максимальным уровнем доверияjurisviii с Максимальным уровнем доверияjurisviii с Максимальным уровнем доверияjurisviii с Максимальным уровнем доверияjurisviii с Максимальным уровнем доверияjurisviii с Максимальным уровнем доверияjurisviii с Максимальным уровнем доверия
По умолчанию

Конечно, простых разовых роликов длиной пара минут нет смысла перегонять дважды, потому что в случае ошибки всегда можно их быстро пересчитать повторно. Кроме того, мои размышления относится к приведенными скринами настроек, а не как гарантия против любых дефектов. Для уменьшения вероятности подобных дефектов следует придерживаться к советам vsorkin по выбору исходников.
jurisviii вне форума   Ответить с цитированием
Старый 19.11.2016, 21:14   #69
altarvic Меню пользователя
Старший научный сотрудник
 
Регистрация: 19.05.2008
Сообщений: 692
Рейтинг: 156259
altarvic с Максимальным уровнем доверияaltarvic с Максимальным уровнем доверияaltarvic с Максимальным уровнем доверияaltarvic с Максимальным уровнем доверияaltarvic с Максимальным уровнем доверияaltarvic с Максимальным уровнем доверияaltarvic с Максимальным уровнем доверияaltarvic с Максимальным уровнем доверияaltarvic с Максимальным уровнем доверияaltarvic с Максимальным уровнем доверияaltarvic с Максимальным уровнем доверия
По умолчанию

В последнем билде добавили рендер в ProRes
altarvic вне форума   Ответить с цитированием
Старый 19.11.2016, 22:40   #70
jurisviii Меню пользователя
Самый научный сотрудник
 
Аватар для jurisviii
 
Регистрация: 09.05.2008
Сообщений: 9,518
Рейтинг: 662780
jurisviii с Максимальным уровнем доверияjurisviii с Максимальным уровнем доверияjurisviii с Максимальным уровнем доверияjurisviii с Максимальным уровнем доверияjurisviii с Максимальным уровнем доверияjurisviii с Максимальным уровнем доверияjurisviii с Максимальным уровнем доверияjurisviii с Максимальным уровнем доверияjurisviii с Максимальным уровнем доверияjurisviii с Максимальным уровнем доверияjurisviii с Максимальным уровнем доверия
По умолчанию

Да, это повисит конкурентоспособность вегаса, особенно в американском рынке.
jurisviii вне форума   Ответить с цитированием
Старый 21.11.2016, 14:31   #71
anhels Меню пользователя
Стажер
 
Регистрация: 21.11.2016
Сообщений: 2
Рейтинг: 10
anhels с Первым уровенем доверия
По умолчанию

Здравствуйте, помогите пожалуйста.
Не могу в vegas pro 14 открыть avi формат. В чем может быть проблема? QuickTime установлено последняя версия. Захват был с видеокассеты камера Sony HDR-FX1000.
anhels вне форума   Ответить с цитированием
Старый 21.11.2016, 14:55   #72
Pilman`s TV Меню пользователя
Старший научный сотрудник
 
Аватар для Pilman`s TV
 
Регистрация: 04.06.2008
Сообщений: 542
Рейтинг: 217374
Pilman`s TV с Максимальным уровнем доверияPilman`s TV с Максимальным уровнем доверияPilman`s TV с Максимальным уровнем доверияPilman`s TV с Максимальным уровнем доверияPilman`s TV с Максимальным уровнем доверияPilman`s TV с Максимальным уровнем доверияPilman`s TV с Максимальным уровнем доверияPilman`s TV с Максимальным уровнем доверияPilman`s TV с Максимальным уровнем доверияPilman`s TV с Максимальным уровнем доверияPilman`s TV с Максимальным уровнем доверия
По умолчанию

.avi это не формат - это контейнер - вот перечень кодеков, которые могут быть внутри http://codec.kiev.ua
установи программку медиаинфо и посмотри информацию о своем файле )
__________________
https://www.youtube.com/user/PilmanTV/videos
Pilman`s TV вне форума   Ответить с цитированием
Старый 21.11.2016, 16:00   #73
anhels Меню пользователя
Стажер
 
Регистрация: 21.11.2016
Сообщений: 2
Рейтинг: 10
anhels с Первым уровенем доверия
По умолчанию



Видео
Цитата:
Идентификатор : 0
Формат : DV
Коммерческое название : DVCPRO
Идентификатор кодека : dvsd
Идентификатор кодека/Подсказка : Sony
Продолжительность : 880 мс.
Вид битрейта : Постоянный
Битрейт : 24,4 Мбит/сек
Закодированный битрейт : 28,8 Мбит/сек
Ширина : 720 пикселей
Высота : 576 пикселей
Соотношение сторон : 16:9
Режим частоты кадров : Постоянный
Частота кадров : 25,000 кадров/сек
Стандарт вещания : PAL
Цветовое пространство : YUV
Субдискретизация насыщенности : 4:2:0
Битовая глубина : 8 бит
Тип развёртки : Чересстрочная
Порядок развёртки : Нижнее поле первое
Метод сжатия : С потерями
Бит/(Пиксели*Кадры) : 2.357
Временной код первого кадра : 00:00:01:13
Оригинал временного кода : Subcode time code
Размер потока : 3,02 Мбайт (91%)
Настройки программы : ae mode=manual / wb mode=one push / white balance= / fcm=manual focus
Общее
Цитата:
Формат : AVI
Формат/Информация : Audio Video Interleave
Коммерческое название : DVCPRO
Размер файла : 3,31 Мбайт
Продолжительность : 880 мс.
Режим общего битрейта : Постоянный
Общий поток : 31,6 Мбит/сек

Последний раз редактировалось anhels; 22.11.2016 в 09:45. Причина: Automerged Doublepost
anhels вне форума   Ответить с цитированием
Старый 24.11.2016, 15:45   #74
Pilman`s TV Меню пользователя
Старший научный сотрудник
 
Аватар для Pilman`s TV
 
Регистрация: 04.06.2008
Сообщений: 542
Рейтинг: 217374
Pilman`s TV с Максимальным уровнем доверияPilman`s TV с Максимальным уровнем доверияPilman`s TV с Максимальным уровнем доверияPilman`s TV с Максимальным уровнем доверияPilman`s TV с Максимальным уровнем доверияPilman`s TV с Максимальным уровнем доверияPilman`s TV с Максимальным уровнем доверияPilman`s TV с Максимальным уровнем доверияPilman`s TV с Максимальным уровнем доверияPilman`s TV с Максимальным уровнем доверияPilman`s TV с Максимальным уровнем доверия
По умолчанию

по поводу артефактов ))
да действительно - косяк декодера h264 вегаса
то есть видео скаченное с ютюба на таймлане - будет с косяками ))
выход один перекодировать сторонним кодером в монтажный формат и после работать с ним в вегасе.
удачи )
__________________
https://www.youtube.com/user/PilmanTV/videos
Pilman`s TV вне форума   Ответить с цитированием
Старый 25.11.2016, 02:43   #75
Проходчик Меню пользователя
Старший научный сотрудник
 
Аватар для Проходчик
 
Регистрация: 30.05.2009
Сообщений: 1,597
Рейтинг: 416300
Проходчик с Максимальным уровнем доверияПроходчик с Максимальным уровнем доверияПроходчик с Максимальным уровнем доверияПроходчик с Максимальным уровнем доверияПроходчик с Максимальным уровнем доверияПроходчик с Максимальным уровнем доверияПроходчик с Максимальным уровнем доверияПроходчик с Максимальным уровнем доверияПроходчик с Максимальным уровнем доверияПроходчик с Максимальным уровнем доверияПроходчик с Максимальным уровнем доверия
По умолчанию

Цитата:
Сообщение от anhels Посмотреть сообщение
Не могу в vegas pro 14 открыть avi формат. QuickTime установлено последняя версия.
Квик Тайм здесь каким боком? Это банальнейший DV файл с которым Вегас умел справляться с самых ранних версий, и никаких "прокладок" ему для этого не нужно. В системе вероятно имеются кодек -паки, которые накидывают массу сторонних DV декодеров?
В 14 вегасе нужную настройку убрали в интернальные. Что нужно сделать? С зажатым Shift вызвать настройки Вегаса( Options-> Preferenсes), открыть вкладку Internal в строке поиска напечатать - "DV"- отфильтруются нужные настройки. Приведи их к вот такому виду:

- в указанных строках вставь правильное значение. Примени настройки, перезагрузи Вегас.
З.Ы. Больше на этой вкладке, если не понимаешь, ничего не меняй....
__________________
Меня постоянно преследуют умные мысли - но я всегда быстрее...
Проходчик вне форума   Ответить с цитированием
Ответ

Опции темы Поиск в этой теме
Поиск в этой теме:

Расширенный поиск
Опции просмотра

Ваши права в разделе
Вы не можете создавать новые темы
Вы не можете отвечать в темах
Вы не можете прикреплять вложения
Вы не можете редактировать свои сообщения

BB коды Вкл.
Смайлы Вкл.
[IMG] код Вкл.
HTML код Выкл.

Быстрый переход


Sony Vegas: ProVegas.ru
© 2008-2014 При полном или частичном использовании материалов ссылка на ProVegas.ru обязательна.


Часовой пояс GMT +4, время: 23:11.



Яндекс.Метрика